Shameless S09E10 Los Diablos 1080p 5.1 - 2.0 x264 Phun Psyz

  • Category TV
  • Type HD
  • Language English
  • Total size 1.1 GB
  • Uploaded By PhunPsyz
  • Downloads 160
  • Last checked 31 minutes ago
  • Date uploaded 18 hours ago
  • Seeders 26
  • Leechers 12
80%
February 11, 2019, 3:00 am

Shameless

Frank meets his match in a fellow participant in the Hobo Loco competition. Fiona has a dark encounter at Patsy’s that scares her into cleaning up her act. Debbie throws herself into home improvements as she gets closer with Kelly. Carl gets a job that is more dangerous than it looks. Lip sees another side of Tami when they spend the day together.

Infohash : 85B221563CBD3930F628E53D9C3E6CAFF775A512

www.imdb.com/title/tt8245476/?ref_=ttep_ep10

Frank meets his match in a fellow participant in the Hobo Loco competition. Fiona has a dark encounter at Patsy's that scares her into cleaning up her act. Debbie throws herself into home improvements as she gets closer with Kelly.

Source: NTb (Amzn)







Format : MPEG-4
Format profile : Base Media / Version 2
Codec ID : mp42 (isom/iso2/avc1/mp41)
File size : 1.12 GiB
Duration : 57 min 28 s
Overall bit rate mode : Variable
Overall bit rate : 2 787 kb/s
Writing application : HandBrake 1.2.0 2018121700

Video
ID : 1
Format : AVC
Format/Info : Advanced Video Codec
Format profile : [email protected]
Format settings : CABAC / 1 Ref Frames
Format settings, CABAC : Yes
Format settings, ReFrames : 1 frame
Codec ID : avc1
Codec ID/Info : Advanced Video Coding
Duration : 57 min 28 s
Bit rate : 2 299 kb/s
Width : 1 920 pixels
Height : 1 080 pixels
Display aspect ratio : 16:9
Frame rate : 23.976 (24000/1001) FPS
Color space : YUV
Chroma subsampling : 4:2:0
Bit depth : 8 bits
Scan type : Progressive
Bits/(Pixel*Frame) : 0.046
Stream size : 945 MiB (82%)
Writing library : x264 core 157 r2935 545de2f

Audio #1
ID : 2
Format : AC-3
Format/Info : Audio Coding 3
Commercial name : Dolby Digital
Codec ID : ac-3
Duration : 57 min 28 s
Bit rate mode : Constant
Bit rate : 320 kb/s
Channel(s) : 6 channels
Channel layout : L R C LFE Ls Rs
Sampling rate : 48.0 kHz
Frame rate : 31.250 FPS (1536 SPF)
Bit depth : 16 bits
Compression mode : Lossy
Stream size : 132 MiB (11%)
Title : Surround
Language : English

Audio #2
ID : 3
Format : AAC LC
Format/Info : Advanced Audio Codec Low Complexity
Codec ID : mp4a-40-2
Duration : 57 min 28 s
Bit rate mode : Constant
Bit rate : 160 kb/s
Channel(s) : 2 channels
Channel layout : L R
Sampling rate : 48.0 kHz
Frame rate : 46.875 FPS (1024 SPF)
Compression mode : Lossy
Stream size : 65.9 MiB (6%)
Title : Stereo
Language : English

Text
Language : English
Default : Yes
Forced : No

Menu
00:00:00.000 : Previously On
00:01:52.988 : Opening Credits
00:03:07.020 : Atticus saves Fiona
00:05:41.007 : Frank tells his kids that he is going to participate in a competition
00:08:06.069 : Fiona explains Eliza about previous night's incident
00:11:08.001 : Frank gets a new friend at the competition
00:15:33.015 : Lip helps Tami with her volunteer service
00:19:07.980 : Frank and Mikey get shortlisted
00:23:05.968 : Liam goes in search of job
00:26:34.051 : Randy asks Ingrid to come with him
00:30:37.044 : Bad news for Fiona
00:36:36.027 : Santiago meets his sister
00:40:28.009 : Debbie tries to check for carbon monoxide and gets in trouble
00:46:24.991 : Dodd asks Liam to close his lemonade business
00:49:56.076 : Fiona leads the protest
00:56:08.991 : End Credits
00:56:49.072 : Next On

Files:

  • Shameless S09E10 Los Diablos 1080p 5.1 - 2.0 x264 Phun Psyz.mp4 (1.1 GB)

There are currently no comments. Feel free to leave one :)

Code:

  • udp://tracker.opentrackr.org:1337/announce
  • udp://tracker.coppersurfer.tk:6969/announce
  • udp://thetracker.org:80/announce
  • udp://tracker.pirateparty.gr:6969/announce
  • udp://tracker.internetwarriors.net:1337/announce
  • udp://tracker.torrent.eu.org:451/announce
  • udp://tracker.tiny-vps.com:6969/announce
  • udp://explodie.org:6969/announce
  • http://explodie.org:6969/announce
  • udp://open.stealth.si:80/announce
  • udp://open.demonii.si:1337/announce
  • udp://tracker.uw0.xyz:6969/announce
  • udp://ipv4.tracker.harry.lu:80/announce
  • udp://denis.stalker.upeer.me:6969/announce
  • http://open.acgtracker.com:1096/announce
SitemapAmericas Got Talent S09E05 HDTV x264-CRiMSON [eztv] | The Umbrella Academy | Deadpool (2016) HDTS READNFO