Spider Man: Homecoming 3D (2017)[BRRip 1080p x264 by alE13 AC3/DT...

  • Category Movies
  • Type 3D
  • Language English
  • Total size 12.3 GB
  • Uploaded By alE13
  • Downloads 271
  • Last checked 59 minutes ago
  • Date uploaded 1 year ago
  • Seeders 5
  • Leechers 6

Infohash : 567A9FDF059CD4C4761CC7656FEBB7497E5EAE47



http://www.imdb.com/title/tt2250912/
http://www.filmweb.pl/film/Spider-Man%3A+Homecoming-2017-659676

Film w wersji 3D Half Over/Under.
Audio DTS w osobnym pliku.
Plik zawiera sample.



reżyseria: Jon Watts
scenariusz: John Francis Daley,Jonathan Goldstein,Jon Watts,Christopher Ford,Chris McKenna,Erik Sommers
gatunek: Akcja,Sci-Fi
produkcja: USA
premiera: 28-06-2017
muzyka: Michael Giacchino
zdjęcia: Salvatore Totino
czas: 2h 13min

opis:

Peter Parker balances his life as an ordinary high school student in Queens with his superhero alter-ego Spider-Man,
and finds himself on the trail of a new menace prowling the skies of New York City.

Peter Parker pod okiem swojego mentora Tony'ego Starka stawia czoło niebezpiecznemu przestępcy Vulture'owi,
który stanowi zagrożenie dla najbliższych Spider-Mana.






obsada:

Tom Holland, Michael Keaton, Robert Downey Jr.

dane techniczne:

audio:

Spider-Man Homecoming 3D (2017)-alE13_DTS.mka

Hash: 66262A84B7E00E93
Format: Matroska
Czas: 02:13:27.989
Rozmiar: 4.19 GiB (4498842974)

Audio (0):
Kodek: (DTS-HD) DTS-HD
Format: DTS
Kanały: 6 channels
BitRate: 2 342 kb/s / 1 509 kb/s
Tytuł: Spider-Man Homecoming 3D (2017)-alE13_DTS MA
Język: English

Audio (1):
Kodek: (DTS) DTS
Format: DTS
Kanały: 6 channels
BitRate: 1 509 kb/s
Tytuł: Spider-Man Homecoming 3D (2017)-alE13_DTS
Język: English

Audio (2):
Kodek: (AC3) AC3
Format: AC-3
Kanały: 6 channels
BitRate: 640 kb/s
Tytuł: Spider-Man Homecoming 3D (2017)-alE13_AC3
Język: French

video:

Spider-Man Homecoming 3D (2017)-alE13.mkv
Format : Matroska
Format version : Version 4 / Version 2
File size : 7.99 GiB
Duration : 2 h 13 min
Overall bit rate : 8 574 kb/s
Movie name : Spider-Man Homecoming 3D (2017)-alE13
Encoded date : UTC 2017-10-15 03:10:46
Writing application : mkvmerge v8.1.0 ('Psychedelic Postcard') 64bit
Writing library : libebml v1.3.1 + libmatroska v1.4.2
Cover : Yes
Attachments : Cover.jpg

Video
ID : 1
Format : AVC
Format/Info : Advanced Video Codec
Format profile : [email protected]
Format settings, CABAC : Yes
Format settings, RefFrames : 2 frames
Codec ID : V_MPEG4/ISO/AVC
Duration : 2 h 13 min
Bit rate : 7 806 kb/s
Width : 1 920 pixels
Height : 1 080 pixels
Display aspect ratio : 16:9
Frame rate mode : Constant
Frame rate : 23.976 (24000/1001) FPS
Color space : YUV
Chroma subsampling : 4:2:0
Bit depth : 8 bits
Scan type : Progressive
Bits/(Pixel*Frame) : 0.157
Stream size : 7.28 GiB (91%)
Title : Spider-Man Homecoming 3D (2017)-alE13
Writing library : x264 core 142
Default : Yes
Forced : No
Color range : Limited
Color primaries : BT.709
Transfer characteristics : BT.709
Matrix coefficients : BT.709

Audio #1
ID : 2
Format : AC-3
Format/Info : Audio Coding 3
Format settings, Endianness : Big
Codec ID : A_AC3
Duration : 2 h 13 min
Bit rate mode : Constant
Bit rate : 448 kb/s
Channel(s) : 6 channels
Channel positions : Front: L C R, Side: L R, LFE
Sampling rate : 48.0 kHz
Frame rate : 31.250 FPS (1536 SPF)
Bit depth : 16 bits
Compression mode : Lossy
Stream size : 428 MiB (5%)
Title : Spider-Man Homecoming 3D (2017)_AC3-alE13
Language : English
Service kind : Complete Main
Default : No
Forced : No

Audio #2
ID : 3
Format : AC-3
Format/Info : Audio Coding 3
Format settings, Endianness : Big
Codec ID : A_AC3
Duration : 2 h 13 min
Bit rate mode : Constant
Bit rate : 256 kb/s
Channel(s) : 2 channels
Channel positions : Front: L R
Sampling rate : 48.0 kHz
Frame rate : 31.250 FPS (1536 SPF)
Bit depth : 16 bits
Compression mode : Lossy
Delay relative to video : 1 s 950 ms
Stream size : 244 MiB (3%)
Title : Spider-Man Homecoming 3D (2017)-alE13_dubbing kino
Language : Polish
Service kind : Complete Main
Default : Yes
Forced : No

Text #1
ID : 4
Format : VobSub
Muxing mode : zlib
Codec ID : S_VOBSUB
Codec ID/Info : Picture based subtitle format used on DVDs
Duration : 2 h 12 min
Bit rate : 8 130 b/s
Count of elements : 1381
Stream size : 7.70 MiB (0%)
Title : Spider-Man Homecoming 3D (2017)-alE13_VobSub
Language : Polish
Default : No
Forced : No

Text #2
ID : 5
Format : UTF-8
Codec ID : S_TEXT/UTF8
Codec ID/Info : UTF-8 Plain Text
Duration : 2 h 12 min
Bit rate : 51 b/s
Count of elements : 1381
Stream size : 49.5 KiB (0%)
Title : Spider-Man Homecoming 3D (2017)-alE13_SRT
Language : Polish
Default : No
Forced : No

Text #3
ID : 6
Format : PGS
Muxing mode : zlib
Codec ID : S_HDMV/PGS
Codec ID/Info : Picture based subtitle format used on BDs/HD-DVDs
Duration : 2 h 12 min
Bit rate : 14.5 kb/s
Count of elements : 4098
Stream size : 13.7 MiB (0%)
Title : Spider-Man Homecoming 3D (2017)-alE13_English-PGS
Language : English
Default : Yes
Forced : No

Text #4
ID : 7
Format : PGS
Muxing mode : zlib
Codec ID : S_HDMV/PGS
Codec ID/Info : Picture based subtitle format used on BDs/HD-DVDs
Duration : 2 h 12 min
Bit rate : 17.2 kb/s
Count of elements : 5010
Stream size : 16.3 MiB (0%)
Title : Spider-Man Homecoming 3D (2017)-alE13_English-SDH-PGS
Language : English
Default : No
Forced : No

Text #5
ID : 8
Format : PGS
Muxing mode : zlib
Codec ID : S_HDMV/PGS
Codec ID/Info : Picture based subtitle format used on BDs/HD-DVDs
Duration : 2 h 12 min
Bit rate : 10.5 kb/s
Count of elements : 3720
Stream size : 9.94 MiB (0%)
Title : Spider-Man Homecoming 3D (2017)-alE13_French-PGS
Language : French
Default : No
Forced : No

Text #6
ID : 9
Format : PGS
Muxing mode : zlib
Codec ID : S_HDMV/PGS
Codec ID/Info : Picture based subtitle format used on BDs/HD-DVDs
Duration : 2 h 12 min
Bit rate : 13.4 kb/s
Count of elements : 4162
Stream size : 12.7 MiB (0%)
Title : Spider-Man Homecoming 3D (2017)-alE13_Spanish-PGS
Language : Spanish
Default : No
Forced : No

Text #7
ID : 10
Format : PGS
Muxing mode : zlib
Codec ID : S_HDMV/PGS
Codec ID/Info : Picture based subtitle format used on BDs/HD-DVDs
Duration : 2 h 9 min
Bit rate : 121 b/s
Count of elements : 26
Stream size : 115 KiB (0%)
Title : Spider-Man Homecoming 3D (2017)-alE13_French-FORCED-PGS
Language : French
Default : No
Forced : No

Menu
00:00:00.000 : en:(01)00:00:00:000
00:05:34.083 : en:(02)00:05:34:083
00:14:24.280 : en:(03)00:14:24:280
00:20:50.999 : en:(04)00:20:50:999
00:26:19.244 : en:(05)00:26:19:244
00:36:27.977 : en:(06)00:36:27:977
00:46:03.927 : en:(07)00:46:03:927
00:54:40.193 : en:(08)00:54:40:193
01:05:10.281 : en:(09)01:05:10:281
01:12:03.277 : en:(10)01:12:03:277
01:20:20.189 : en:(11)01:20:20:190
01:29:41.542 : en:(12)01:29:41:542
01:36:56.894 : en:(13)01:36:56:894
01:44:44.152 : en:(14)01:44:44:152
01:50:31.249 : en:(15)01:50:31:249
01:57:53.566 : en:(16)01:57:53:566

Files:

Spider-Man Homecoming 3D (2017)-alE13 info
  • Cover.jpg (687.7 KB)
  • 3.jpg (499.7 KB)
  • Nostalgie11.jpg (185.8 KB)
  • 2.jpg (156.3 KB)
  • Torrent Downloaded From devil-torrents.txt (0.1 KB)
  • Torrent downloaded from demonoid.pw.txt (0.0 KB)
  • Torrent Downloaded From ex-torrents-org.txt (0.0 KB)
  • Torrent Downloaded From immortaltorrent.txt (0.0 KB)
  • Torrent Downloaded From super-torrent.txt (0.0 KB)
  • Torrent Downloaded From gktotf.biz.txt (0.0 KB)
  • Torrent Downloaded From bitnova.info.txt (0.0 KB)
subtitles
  • Spider-Man Homecoming 3D (2017)-alE13.rar (45.4 MB)
  • Spider-Man Homecoming 3D (2017)-alE13.mkv (8.0 GB)
  • Spider-Man Homecoming 3D (2017)-alE13_DTS.mka (4.2 GB)
  • sample.mkv (40.1 MB)
  • Poster.jpg (148.6 KB)
  • txt.jpg (126.8 KB)

There are currently no comments. Feel free to leave one :)

Code:

  • http://tracker.devil-torrents.pl/announce
  • http://tracker.torrentyorg.pl/announce
  • udp://tracker.opentrackr.org:1337/announce
  • udp://tracker.leechers-paradise.org:6969/announce
  • udp://tracker.ilibr.org:80/announce
  • udp://tracker.coppersurfer.tk:6969/announce
  • udp://p4p.arenabg.ch:1337/announce
  • udp://inferno.demonoid.pw:3391/announce
SitemapDef Jam Rapstar [NTSC/ENG] XBOX360 | Was vom Tage übrig blieb | My Sassy Girl DVD